Hello
  Home Help Login Register DMCA Rules  
16 December 2017, 10:02:20
 

Skoci na stranu: 1    Idi na dno strane
Send this topic    Print
Author Topic: Fracture (2007) + prevod  (Read 422 times)
« on: 14 March 2013, 09:59:25 »

Fracture (2007) + prevod



Code:
http://www.imdb.com/title/tt0488120/

Fracture is a 2007 American crime-drama mystery film from New Line Cinema and Castle Rock Entertainment, directed by Gregory Hoblit from a screenplay by Glenn Gers and Daniel Pyne, starring Anthony Hopkins and Ryan Gosling. The film had its world premiere on April 11, and was released in the United States and Canada on April 20, 2007, becoming both a critical and a commercial success.[1][2][3]

Fracture tells the story of a man who shoots his unfaithful wife, and the young prosecutor who attempts to prevent him from manipulating the justice system to get away with the crime.

The film received generally positive reviews from critics and was also a box office success, making $91.4 million worldwide against a $10 million budget.

Cast

    Anthony Hopkins as Theodore "Ted" Crawford
    Ryan Gosling as William "Willy" Beachum
    David Strathairn as District Attorney Joe Lobruto
    Rosamund Pike as Nikki Gardner
    Embeth Davidtz as Jennifer Crawford
    Billy Burke as Lt. Rob Nunally
    Cliff Curtis as Detective Flores
    Fiona Shaw as Judge Robinson
    Bob Gunton as Judge Frank Gardner
    Josh Stamberg as Norman Foster
    Xander Berkeley as Judge Moran
    Zoe Kazan as Mona



Quote
Format                                   : AVI
Format/Info                              : Audio Video Interleave
File size                                : 701 MiB
Duration                                 : 1h 53mn
Overall bit rate                         : 865 Kbps
Writing application                      : VirtualDubMod 1.5.10.1 (build 2366/release)
Writing library                          : VirtualDubMod build 2366/release

Video
ID                                       : 0
Format                                   : MPEG-4 Visual
Format profile                           : Advanced [email protected]
Format settings, BVOP                    : 2
Format settings, QPel                    : No
Format settings, GMC                     : No warppoints
Format settings, Matrix                  : Default (H.263)
Codec ID                                 : DX50
Codec ID/Hint                            : DivX 5
Duration                                 : 1h 53mn
Bit rate                                 : 743 Kbps
Width                                    : 664 pixels
Height                                   : 274 pixels
Display aspect ratio                     : 2.40:1
Frame rate                               : 23.976 fps
Color space                              : YUV
Chroma subsampling                       : 4:2:0
Bit depth                                : 8 bits
Scan type                                : Progressive
Compression mode                         : Lossy
Bits/(Pixel*Frame)                       : 0.170
Stream size                              : 603 MiB (86%)
Writing library                          : XviD 1.0.3 (UTC 2004-12-20)

Audio
ID                                       : 1
Format                                   : MPEG Audio
Format version                           : Version 1
Format profile                           : Layer 3
Codec ID                                 : 55
Codec ID/Hint                            : MP3
Duration                                 : 1h 53mn
Bit rate mode                            : Constant
Bit rate                                 : 112 Kbps
Channel(s)                               : 2 channels
Sampling rate                            : 48.0 KHz
Compression mode                         : Lossy
Stream size                              : 90.8 MiB (13%)
Alignment                                : Aligned on interleaves
Interleave, duration                     : 42 ms (1.00 video frame)
Interleave, preload duration             : 504 ms


Code:
http://ul.to/x1fcs6yg
http://ul.to/llma1fii
  • *
  • ..:: drummer ::..
  • zahvalnica: 121

  • Location: The World
  • Date Registerd:04 June 2009, 19:57:07
  • Posts: 2235
  • Topics: 994
  • Activity/Aktivnost
    0%
  • OS:
    Windows 7 Windows 7
  • Browser:
    Firefox 19.0 Firefox 19.0
Logged
Skoci na stranu: 1    Idi na vrh strane
Send this topic    Print
 
Skoci na:  

Powered by SMF 1.1.10 | SMF © 2006-2009, Simple Machines LLC
Page created in 2.195 seconds with 23 queries.

Google visited last this page 10 December 2017, 01:53:48
Theme created by Logo Off