Hello
  Home Help Login Register DMCA Rules  
16 December 2017, 10:02:00
 

Skoci na stranu: 1    Idi na dno strane
Send this topic    Print
Author Topic: Pathfinder (2007) DVDRip  (Read 2630 times)
« on: 13 June 2009, 20:04:39 »

Pathfinder (2007) DVDRip XviD


 imdb



Simple:



 download




  • *
  • zahvalnica: 248

  • Location: Zaječar
  • Date Registerd:04 April 2009, 07:54:29
  • Posts: 1268
  • Topics: 902
  • Activity/Aktivnost
    0%
  • OS:
    Windows XP Windows XP
  • Browser:
    Firefox 3.0.11 Firefox 3.0.11
« Last Edit: 08 May 2010, 15:55:03 by Borko.c » Logged
« Reply #1 on: 28 February 2012, 12:02:05 »




Quote
Director: Marcus Nispel
Writers: Laeta Kalogridis (screenplay), Nils Gaup
Stars: Karl Urban, Clancy Brown and Moon Bloodgood
Genre: Action, Adventure
Country: USA
Language: English, Icelandic (only a few words)
Release Date: USA 13 April 2007    
Duration time: 01:42:46
Filesize: 699.8 MB, parts 350 MB

Video: XviD, avi, bitrate 794 Kbps, 640x272, 25.000 fps
Audio: MPEG Audio, bitrate 144 Kbps, channels 2, 48.0 KHz

A Viking boy is left behind after his clan battles a Native American tribe. Raised within the tribe, he ultimately becomes their savior in a fight against the Norsemen.

IMDB
Code:
http://www.imdb.com/title/tt0446013/


passwd:
Code:
joe77joe77

Code:
http://freakshare.com/files/j2ucgoxk/Trop.part1.rar.html
http://freakshare.com/files/gxfb9amp/Trop.part2.rar.html
  • *
  • zahvalnica: 4

  • Date Registerd:26 January 2011, 18:29:06
  • Posts: 162
  • Topics: 117
  • Activity/Aktivnost
    0%
  • OS:
    Windows 7 Windows 7
  • Browser:
    Firefox 5.0 Firefox 5.0
Logged
« Reply #2 on: 17 March 2012, 22:22:21 »

 giggle giggle
  • del38196
  • Guest
  • Email
Logged
« Reply #3 on: 11 March 2013, 10:06:33 »

Pathfinder (2007) + prevod



Code:
http://www.imdb.com/title/tt0446013/

Pathfinder (also known by the alternate title Pathfinder: The Legend of the Ghost Warrior) is a 2007 American epic action film directed by Marcus Nispel, distributed by 20th Century Fox, and stars Karl Urban, Clancy Brown, Ralf Mller, Moon Bloodgood, Russell Means, Jay Tavare, and Nathaniel Arcand. It is a loose remake of an Oscar-nominated 1987 Norwegian movie of the same name[4] although the geographic setting and peoples involved are very different.

Pathfinder takes place in "Vinland" (the Eastern Seaboard of Pre-Columbian North America) and the story involves a fictional conflict between the Native Americans and Viking marauders from across the Atlantic Ocean, who have come to the Americas in search of colonization.

Pathfinder received a widely negative critical reception upon release and was not successful at the box office, although the film did enjoy much better home video sales whereby the studio recouped its costs and developed a small cult following. It was also adapted into a graphic novel by Dark Horse Comics

Cast

    Karl Urban Ghost, the protagonist of the story and the son of a Viking raider, who was stranded in the Americas as a child. Raised by the Native American tribesmen, whom he sees as his adopted family, he is torn between two worlds. He is a great warrior and swordsman, and finds himself falling for Starfire.
    Moon Bloodgood Starfire, the Pathfinder's beautiful, headstrong daughter, who also inherits his wisdom and faith in Ghost.
    Clancy Brown Gunnar, the antagonist of the film and a cruel and barbaric leader of a second party of Viking marauders. He wishes to "cleanse" the land of the Native Americans who he sees as "not even human", so that he and the rest of his people can settle there. Gunnar engages in a psychological as well as physical struggle with Ghost.
    Ralf Mller Ulfar, lieutenant of the Viking marauders and Gunnar's right-hand-man. Loses an eye in a battle with Ghost.
    Russell Means Pathfinder, an elderly and wise Native American tribal chieftain who is searching for a worthy successor. "Pathfinder" is more than a name, it is a title, which is akin to something of a protective/guiding role to the tribe.
    Nathaniel Arcand Wind In Tree, Pathfinder's son who believes in the prophecy that Ghost will deliver his people; he nonetheless follows his father's orders without question and so does not fight, instead attempting to lead his people to the safety of the next village.
    Jay Tavare Blackwing, a warrior and Brave of Pathfinder's tribe who is also in love with Starfire and something of a rival to her other suitor, Ghost. Blackwing also mistrusts Ghost due to his Viking ancestry.
    Kevin Loring Jester, a clumsy mute who is seen as something of a joke amongst the other tribesmen. He idolizes Ghost and is the first tribesmen to join Ghost in his solitary quest to kill the Vikings, proving his worth.



Quote
Format                                   : AVI
Format/Info                              : Audio Video Interleave
File size                                : 701 MiB
Duration                                 : 1h 42mn
Overall bit rate                         : 953 Kbps
Writing application                      : VirtualDubMod 1.5.10.1 (build 2366/release)
Writing library                          : VirtualDubMod build 2366/release

Video
ID                                       : 0
Format                                   : MPEG-4 Visual
Format profile                           : Advanced [email protected]
Format settings, BVOP                    : 2
Format settings, QPel                    : No
Format settings, GMC                     : No warppoints
Format settings, Matrix                  : Default (H.263)
Codec ID                                 : DX50
Codec ID/Hint                            : DivX 5
Duration                                 : 1h 42mn
Bit rate                                 : 831 Kbps
Width                                    : 632 pixels
Height                                   : 256 pixels
Display aspect ratio                     : 2.469
Frame rate                               : 25.000 fps
Color space                              : YUV
Chroma subsampling                       : 4:2:0
Bit depth                                : 8 bits
Scan type                                : Progressive
Compression mode                         : Lossy
Bits/(Pixel*Frame)                       : 0.206
Stream size                              : 611 MiB (87%)
Writing library                          : XviD 1.0.3 (UTC 2004-12-20)

Audio
ID                                       : 1
Format                                   : MPEG Audio
Format version                           : Version 1
Format profile                           : Layer 3
Codec ID                                 : 55
Codec ID/Hint                            : MP3
Duration                                 : 1h 42mn
Bit rate mode                            : Constant
Bit rate                                 : 112 Kbps
Channel(s)                               : 2 channels
Sampling rate                            : 48.0 KHz
Compression mode                         : Lossy
Stream size                              : 82.3 MiB (12%)
Alignment                                : Aligned on interleaves
Interleave, duration                     : 40 ms (1.00 video frame)
Interleave, preload duration             : 504 ms


Code:
http://ul.to/hwfrsb01
http://ul.to/m6565i5p
  • *
  • ..:: drummer ::..
  • zahvalnica: 121

  • Location: The World
  • Date Registerd:04 June 2009, 19:57:07
  • Posts: 2235
  • Topics: 994
  • Activity/Aktivnost
    0%
  • OS:
    Windows 7 Windows 7
  • Browser:
    Firefox 19.0 Firefox 19.0
Logged
Skoci na stranu: 1    Idi na vrh strane
Send this topic    Print
 
Skoci na:  

Powered by SMF 1.1.10 | SMF © 2006-2009, Simple Machines LLC
Page created in 4.439 seconds with 26 queries.

Google visited last this page 12 December 2017, 05:52:07
Theme created by Logo Off